Rev. Cleophus Robinson - Everlasting Life / Just Over The HillRev. Cleophus Robinson - Everlasting Life / Just Over The Hill Various - Barnas Viser 1Various - Barnas Viser 1 Simplistix - The Night Terror EPSimplistix - The Night Terror EP Lapp-Lisa - Lilla Mor / Tack För Glädje Och LyckaLapp-Lisa - Lilla Mor / Tack För Glädje Och Lycka Rod Stewart - Downtown Train / Broken ArrowRod Stewart - Downtown Train / Broken Arrow Underworld, Heller & Farley • The Misterons - Baby Wants To RideUnderworld, Heller & Farley • The Misterons - Baby Wants To Ride Dynamic Intervention - Dynamite / Coming On StrongDynamic Intervention - Dynamite / Coming On Strong Mina  - Folle BanderuolaMina - Folle Banderuola
» » Werner Lämmerhirt - Inbetween Times
Werner Lämmerhirt - Inbetween Times download free
Title:

Werner Lämmerhirt - Inbetween Times download free

Album:
Inbetween Times
Released:
MP3 archive size:
1984 mb
FLAC archive size:
1810 mb
WMA archive size:
1752 mb
Other formats:
ADX ADX AHX RA APE DXD MP3
Rating:
4.4
Votes:
374

Tracklist

1 Lollipop 3:59
2 The one who's loosing you 6:08
3 Open it up 3:19
4 Only one more time 4:34
5 Coming home from school 3:09
6 Kirmes 3:10
7 Pay the bill 5:04
8 October romance 4:02
9 Watch out baby 4:35
10 Lady Abigail 3:29
11 Bach's bouree 3:29
12 When the show is over 5:05

Notes

Werner Lämmerhirt: Gitarren, Vocal
Peer Knacke: Gitarren
Volker Leiss: Flöten
Beo Brockhausen: Saxophon
Hans-Jörg Maucksch: Bass

Gitarren von Roland Scharbattke, Iserlohn
und von Knut Welsch, Erlangen
Flöten von Heinz Röster, Heide

Kompositionen und Texte aller Titel: Werner Lämmerhirt
Ausgenommen Titel 11 "Bach's Bouree": J.S. Bach/Werner Lämmerhirt

Aufgenommen August/September 1992
Pauler Acoustics, Northeim,
Ton: Günter Pauler
Mastering: Hans-Jörg Maucksch

Produziert von Günter Pauler und Werner Lämmerhirt

©+℗ 1992 Stockfisch Records, D-37154 Northeim/Germany
www.stockfisch-records.de

20 Bit A/D Conversion

Distributed by in-akustik www.in-akustik.com

Barcode and Other Identifiers

  • Barcode: 4013357100725
  • Label Code: 04910
  • foobar2000 1.3.17 / Dynamic Range Meter 1.1.1log date: 2018-07-14 14:13:18--------------------------------------------------------------------------------Analyzed: Werner Lämmerhirt / Inbetween Times--------------------------------------------------------------------------------DR Peak RMS Duration Track--------------------------------------------------------------------------------DR13 -1.04 dB -17.88 dB 4:01 01-LollipopDR12 -0.26 dB -15.01 dB 6:10 02-The One Who's Loosing YouDR14 -1.34 dB -18.62 dB 3:21 03-Open It UpDR13 -0.62 dB -15.73 dB 4:36 04-Only One More TimeDR15 -0.99 dB -17.76 dB 3:11 05-Coming Home From SchoolDR13 -0.57 dB -15.52 dB 3:12 06-KirmesDR12 -0.35 dB -14.74 dB 5:05 07-Pay The BillDR12 -2.48 dB -17.24 dB 4:04 08-October RomanceDR12 -0.33 dB -13.80 dB 4:37 09-Watch Out BabyDR13 -1.53 dB -17.43 dB 3:31 10-Lady AbigailDR15 -0.25 dB -17.76 dB 6:00 11-Bach's BoureeDR12 -0.46 dB -14.32 dB 5:06 12-When The Show Is Over--------------------------------------------------------------------------------Number of tracks: 12Official DR value: DR13Samplerate: 44100 HzChannels: 2Bits per sample: 16Bitrate: 809 kbpsCodec: ALAC================================================================================